Skip to main content

The Dangers Live at Pappy & Harriet's Pioneertown Palace (indoor stage) on 2011-09-16




01. pre intro
02. intro
03. Yesterday's Girl
04. Last Train
05. Breakdown
06. Happy Man
07. Broken Wing
08. Crawl
09. Hurts Me So
10. Little Bit Of Light
11. Comes A Morning
12. Stranger
13. Big Hearted River
14. Walking Highway 61
15. Dedication
16. Radio City
17. Get High
18. Whole Lotta Trouble
19. Lucky
21. recordist's signout


Collection TheDangers
Band/Artist The Dangers
Venue Pappy & Harriet's Pioneertown Palace (indoor stage)
Location Pioneertown CA USA

Source SBD + AUD mix
Lineage WAV > FLAC @24/48
Taped by morst
Transferred by morst & digitalist0ne

Notes

The Dangers
Thursday, September 16, 2011
Pioneertown CA USA
Pappy & Harriet's Pioneertown Palace (indoor stage)

7th Annual Cracker/ Camper Van Beethoven family reunion campout

SHNTOOL LEN:
length expanded size cdr WAVE problems fmt ratio filename
4:32.411 78454514 B cxx -- ---xx flac 0.6020 Dangers2011-09-16t01.flac
2:18.595 39915404 B cxx -- ---xx flac 0.5972 Dangers2011-09-16t02.flac
2:22.899 41154980 B cxx -- ---xx flac 0.7341 Dangers2011-09-16t03.flac
4:25.049 76334180 B cxx -- ---xx flac 0.7422 Dangers2011-09-16t04.flac
3:35.433 62044784 B cxx -- ---xx flac 0.7228 Dangers2011-09-16t05.flac
3:41.904 63908402 B cxx -- ---xx flac 0.6818 Dangers2011-09-16t06.flac
4:30.237 77828396 B cxx -- ---xx flac 0.6882 Dangers2011-09-16t07.flac
2:55.493 50542118 B cxx -- ---xx flac 0.6987 Dangers2011-09-16t08.flac
6:37.014 114340100 B cxx -- ---xx flac 0.7145 Dangers2011-09-16t09.flac
2:44.562 47393930 B cxx -- ---xx flac 0.7460 Dangers2011-09-16t10.flac
4:31.003 78048914 B cxx -- ---xx flac 0.7202 Dangers2011-09-16t11.flac
3:39.119 63106352 B cxx -- ---xx flac 0.6766 Dangers2011-09-16t12.flac
4:57.435 85661270 B cxx -- ---xx flac 0.7312 Dangers2011-09-16t13.flac
3:53.970 67383338 B cxx -- ---xx flac 0.7469 Dangers2011-09-16t14.flac
3:48.676 65858804 B cxx -- ---xx flac 0.7361 Dangers2011-09-16t15.flac
3:07.487 53996360 B cxx -- ---xx flac 0.7307 Dangers2011-09-16t16.flac
8:28.113 146336588 B cxx -- ---xx flac 0.7090 Dangers2011-09-16t17.flac
2:30.782 43425296 B cxx -- ---xx flac 0.7249 Dangers2011-09-16t18.flac
5:18.997 91871186 B cxx -- ---xx flac 0.7128 Dangers2011-09-16t19.flac
0:52.734 15187496 B cxx -- ---xx flac 0.5724 Dangers2011-09-16t20.flac
78:51.915 1362792412 B 0.7055 (20 files)

-~-~-~-~-~-~-~-~-~-~-~-~-~-~-~-~-~-~-~-~-~-~-~-~-~-
The Soundscape Preservation Society (Founded 1991)
http://www.iamtypingwithonefinger.com/SPS.html
-~-~-~-~-~-~-~-~-~-~-~-~-~-~-~-~-~-~-~-~-~-~-~-~-~-

Reviews

There are no reviews yet. Be the first one to write a review.
DOWNLOAD OPTIONS
In Collection
The Dangers
In Collection
Live Music Archive
Uploaded by
morst
on 10/8/2012
Views
124
Favorites
1
PEOPLE ALSO FOUND
The Dangers
by The Dangers
161
1
0
Source: Neumann KM140's (shock-mounted ORTF pair ~8' from right side PA speaker ~7' high, clamped to beam support) > Beyer MV100 > Edirol R09 @24-bit/44.1KHz
The Dangers
155
1
0
Source: SBD + AUD mix
The Dangers
by The Dangers
279
1
1
( 1 reviews )
Source: Neumann KM140's > Beyer MV100 > Sony PCM-D50 > WAVs @48kHz/24bit + Yamaha SBD > Edirol R09 > WAVs @48kHz/24bit
The Dangers
by The Dangers
1,181
1
0
Source: Neumann KM140's (shock-mounted ORTF pair ~8' from right side PA speaker ~7' high, clamped to beam support) > Beyer MV100 > Edirol R09 @24-bit/44.1KHz
The Dangers
by The Dangers
210
1
2
( 2 reviews )
The Dangers
115
1
0
Source: SBD + AUD mix @24/48
The Dangers
by The Dangers
217
1
0
Source: Neumann KM140's (shock-mounted ORTF pair, front-row center, on 4' stand) > Beyer MV100 > Zoom H2 @16-bit/44.1KHz
The Dangers
by The Dangers
94
1
0
Source: Zoom H2 internal mics > WAV @16/44.1
Source: SBD + AUD mix
The Dangers
385
1
1
( 1 reviews )
Source: Neumann KM140's (X/Y clamped to clamp on ceiling beam, approx 5' from stage) > Beyer MV100 > Sony PCM-M10 > WAV @24/48 + Midas SBD > Sony PCM-M10 > WAV @24/48